#TITLE:摇摆吧;
#SUBTITLE:;
#ARTIST:Kil Gun;
#TITLETRANSLIT:;
#SUBTITLETRANSLIT:;
#ARTISTTRANSLIT:;
#CREDIT:;
#BANNER:ҡڰ-LOGO.jpg;
#BACKGROUND:ҡڰ.jpg;
#LYRICSPATH:;
#CDTITLE:Lan.png;
#MUSIC:ҡڰ.mp3;
#OFFSET:-0.040;
#SAMPLESTART:100.000;
#SAMPLELENGTH:12.000;
#SELECTABLE:YES;
#BPMS:0.000=104.000;
#STOPS:;
#BGCHANGES:;
// cache tags:
#FIRSTBEAT:4.000;
#LASTBEAT:229.250;
#SONGFILENAME:Songs/lan sky/ҡڰ/ҡڰ.sm;
#HASMUSIC:1;
#HASBANNER:1;
#MUSICLENGTH:134.780;
// end cache tags

//---------------dance-single - sky----------------
#NOTES:
     dance-single:
     sky:
     Hard:
     9:
     0.709,0.638,1.000,0.030,0.505,523.000,142.000,4.000,0.000,7.000:

0000
0000
0000
0000
,
1000
0010
0100
0001
0010
0000
0010
0000
0100
0010
0100
1000
0001
0010
0100
0000
,
0010
0001
0100
0010
1000
0000
1000
0000
0100
0010
0100
0001
0010
0100
0010
0000
,
1000
0010
0100
0001
0010
0000
0010
0000
0100
0010
0100
1000
0001
0000
0001
0000
,
0010
0100
1000
0100
1000
0000
1000
0000
0100
0010
0100
0000
0010
0000
0010
0000
,
0001
0010
0100
0010
1000
0100
0010
0001
0110
0000
0100
1000
0100
0010
0001
0010
,
1100
0000
0000
0000
0010
0000
0100
0010
0100
0000
1001
0000
0000
1001
0000
0000
,
1001
0000
0100
0010
0100
0000
0001
0000
1010
0001
0010
0000
1001
0000
0010
0000
,
0101
0000
0010
0100
0010
0000
1000
0000
1100
0010
0001
0000
1010
0000
0100
0000
,
0101
0000
0010
0100
1001
0000
0010
0000
0011
1000
0100
0000
0011
0000
0100
0000
,
0011
0000
0100
0010
1001
0000
0010
0000
0001
0010
0100
0010
1100
0010
0001
0000
,
1010
0000
0100
0001
1010
0000
0100
0000
1010
0100
0001
0000
0010
0000
0100
0000
,
1001
0000
0100
0010
0100
0000
0010
0000
1100
0010
0100
0000
1100
0000
0001
0000
,
1010
0000
0100
1000
0011
0000
0100
0000
1010
0100
0001
0000
0010
0000
0100
0000
,
0101
0000
0101
0000
0101
0000
0010
0100
1010
0000
0010
0000
0101
0000
0000
0000
,
1000
0100
0011
0000
0000
0011
0000
0000
0100
0010
1001
0000
0000
1001
0000
0000
,
0001
0000
1000
0100
0001
0000
0010
0100
0001
0000
1000
0100
0001
0000
0010
0000
,
0100
0000
0001
0000
0010
0000
0100
0001
0010
0000
0100
0000
1000
0000
0010
0000
,
0001
0000
0010
0000
0100
0000
0001
0100
0010
0000
0101
0000
1010
0000
0001
0010
,
0100
0000
1000
0000
0010
0000
0100
0010
0001
0000
0010
0000
0100
0000
0010
0010
,
0001
0000
0100
0000
0010
0000
1000
0100
0010
0000
0001
0000
0010
0000
0100
0100
,
0010
0000
0001
0000
0010
0000
0100
0010
1000
0000
0100
0000
0010
0000
0001
0001
,
1100
0010
0100
0010
2001
0010
0000
0000
0000
0000
0011
0000
0000
0011
0000
0000
,
3011
0000
1000
0100
0011
0000
1000
0100
0010
0000
0100
0010
0100
0000
0010
0100
,
0001
0000
0010
0000
0100
1000
0100
0000
0110
0000
0001
0000
1010
0000
0100
0000
,
0001
0000
0010
0000
0100
0010
0100
0000
0011
0000
0100
0000
0010
0000
1000
0010
,
0101
0000
0101
0000
0101
0000
1000
0100
0011
0000
0000
0000
0011
0000
0000
0000
,
0110
0000
0000
0000
0000
0000
0000
0000
0000
0000
1010
0000
0000
1010
0000
0000
,
1010
0000
0101
0000
1010
0000
0100
0000
0010
0000
1100
0010
0100
0000
1000
0000
,
0100
0000
0010
0000
0001
0000
0010
1000
0100
0000
0010
0000
0100
0000
1000
0010
,
0100
0000
0010
0000
0100
0000
0001
1000
0011
0000
1100
0000
0011
0000
0100
0010
,
0001
0000
0100
0000
0010
0000
1000
0010
0100
0000
0010
0000
0001
0000
0010
0100
,
0010
0000
0001
0000
0010
0000
0100
0010
0100
0000
1000
0000
0100
0000
0010
0001
,
0100
0000
0010
0000
0001
0000
0010
0001
0100
0000
0010
0000
0100
0000
1000
0100
,
0011
0000
0000
0000
0011
0000
0000
0100
0020
0000
0000
0000
0100
0100
0100
0100
,
1031
0000
0011
0000
0100
0011
0000
0000
0011
0000
0011
0000
0100
0000
0011
0000
,
1001
0000
1001
0000
0101
1000
0000
0000
0101
0000
0101
0000
0010
0000
0101
0000
,
1010
0000
1010
0000
0100
0010
0000
0000
1001
0000
1001
0000
0010
0000
0000
0000
,
0011
0000
0011
0000
1000
0100
0000
0000
1010
0000
1010
0000
0001
0001
0001
0001
,
1010
0000
1010
0000
1010
0000
0001
0000
0010
0000
0101
0000
0000
0101
0000
0000
,
0011
0000
0011
0000
1000
0011
0000
0000
0011
0000
0011
0000
1000
0000
0011
0000
,
0101
0000
0101
0000
0010
0101
0000
0000
0101
0000
0101
0000
0100
0000
0000
0000
,
0011
0000
0011
0000
1000
0100
0000
0000
1000
0000
1100
0010
0100
0010
0100
0010
,
1001
0000
0000
0000
0000
0000
0000
0000
0000
0000
1010
0000
0000
1010
0000
0000
,
1010
0000
0010
0000
0100
0010
0000
0000
1001
0000
1001
0000
0010
0000
0101
0000
,
1010
0000
1010
0000
0100
0010
0000
0000
1001
0000
1000
0001
0100
0000
1010
0000
,
0101
0000
0101
0000
0010
0100
0000
0000
0101
1000
0001
0000
0100
0100
0100
0100
,
1010
0000
1010
0000
1010
0000
0100
0010
0001
0000
0110
0000
0000
0110
0000
0000
,
0001
0000
0001
0000
0100
0010
0000
0000
0001
0000
0010
0100
0010
0000
0001
0000
,
0100
0000
0100
0000
1000
0100
0000
0000
0100
0000
0100
0010
0001
0000
0000
0000
,
0101
0000
0101
0000
1000
0010
0000
0000
0101
0000
0101
0010
0100
0010
0000
0000
,
0101
0000
0000
0000
0000
0000
0000
0000
0000
0000
0101
0000
0000
0101
0000
0000
,
1001
0000
0000
0000
0000
0000
0000
0000
0100
0100
0100
0100
0100
0100
0100
0100
,
1001
0000
0010
0100
0001
1000
0010
2000
0001
0000
0100
0000
0010
0000
0010
0000
,
3101
0000
0010
0001
1000
0010
0000
0100
0021
0000
0100
0000
1001
0000
0000
0000
,
1031
0000
0010
0001
1000
0100
0000
0001
1010
0000
0001
0100
0010
1000
0100
0000
,
0101
0000
0101
0000
0101
0000
0010
0100
0011
0000
0010
0100
0011
0000
0000
0000
,
0010
0100
1001
0000
0000
1001
0000
0000
0000
0000
0000
0000
0000
0000
0000
0000
;
